Inicio > Peliculas > La Boda De Mi Mejor Amiga (Cast-Ing-Lat AC3,DTS HD 1080p mkv Comedia 2011 FS,US,X7,NT,WU,FJ)

La Boda De Mi Mejor Amiga (Cast-Ing-Lat AC3,DTS HD 1080p mkv Comedia 2011 FS,US,X7,NT,WU,FJ)

Martes, 22 de noviembre de 2011 Dejar un comentario Ir a comentarios



La Boda De Mi Mejor Amiga

Idioma: Castellano,Ingles,Latino
Subtitulos: Español
Pais: USA
Director: Julien Magnat
Guión: Kristen Wiig, Annie Mumolo
Género: Comedia
Reparto: Kristen Wiig, Maya Rudolph, Rose Byrne, Jon Hamm, Melissa McCarthy, Ellie Kemper, Chris O’Dowd

Sinopsis:
Annie (Kristen Wiig) es una treintañera soltera del Medio Oeste, con una vida sentimental más bien precaria, a la que Lilliam, su mejor amiga (Maya Rudolph), le pide que sea su dama de honor. Sin embargo, aunque nunca ha ejercido esa función, la pobre se esfuerza por dárselas de snob en la fiesta anterior a la boda. Mientras tanto, otra amiga de Lillian (Rose Byrne) hará todo lo posible por arrebatarle el papel a la inexperta Annie.


MEDIAINFO

Spoiler Código:

General
Complete name : La.boda.de.mi.mejor.amiga.1080p.Dual
Format : Matroska
Format version : Version 2
File size : 12.1 GiB
Duration : 2h 4mn
Overall bit rate : 13.9 Mbps
Movie name : La boda de mi mejor amiga 2011 1080p
Writing application : mkvmerge v3.4.0 (‘Rapunzel’) built on May 15 2010 09:38:20
Writing library : libebml v0.8.0 + libmatroska v0.9.0

Video
ID : 1
Format : AVC
Format/Info : Advanced Video Codec
Format profile : High@L4.0
Format settings, CABAC : Yes
Format settings, ReFrames : 3 frames
Codec ID : V_MPEG4/ISO/AVC
Duration : 2h 4mn
Bit rate mode : Variable
Bit rate : 9 883 Kbps
Nominal bit rate : 8 178 Kbps
Maximum bit rate : 25.0 Mbps
Width : 1 920 pixels
Height : 800 pixels
Display aspect ratio : 2.40:1
Frame rate : 23.976 fps
Color space : YUV
Chroma subsampling : 4:2:0
Bit depth : 8 bits
Scan type : Progressive
Bits/(Pixel*Frame) : 0.268
Stream size : 8.63 GiB (71%)
Title : La boda de mi mejor amiga 2011 1080p
Writing library : x264
Language : Spanish

Audio #1
ID : 2
Format : DTS
Format/Info : Digital Theater Systems
Codec ID : A_DTS
Duration : 2h 4mn
Bit rate mode : Constant
Bit rate : 755 Kbps
Channel(s) : 6 channels
Channel positions : Front: L C R, Side: L R, LFE
Sampling rate : 48.0 KHz
Bit depth : 24 bits
Compression mode : Lossy
Stream size : 674 MiB (5%)
Title : Audio Castellano DTS
Language : Spanish

Audio #2
ID : 3
Format : DTS
Format/Info : Digital Theater Systems
Format profile : MA / Core
Codec ID : A_DTS
Duration : 2h 4mn
Bit rate mode : Variable
Bit rate : 1 576 Kbps / 1 510 Kbps
Channel(s) : 6 channels
Channel positions : Front: L C R, Side: L R, LFE
Sampling rate : 48.0 KHz
Bit depth : 24 bits
Compression mode : Lossless / Lossy
Title : Audio DTS-HD Ingles
Language : English

Audio #3
ID : 4
Format : AC-3
Format/Info : Audio Coding 3
Mode extension : CM (complete main)
Codec ID : A_AC3
Duration : 2h 4mn
Bit rate mode : Constant
Bit rate : 640 Kbps
Channel(s) : 6 channels
Channel positions : Front: L C R, Side: L R, LFE
Sampling rate : 48.0 KHz
Bit depth : 16 bits
Compression mode : Lossy
Stream size : 572 MiB (5%)
Title : Audio Castellano AC3
Language : Spanish

Audio #4
ID : 5
Format : DTS
Format/Info : Digital Theater Systems
Codec ID : A_DTS
Duration : 2h 4mn
Bit rate mode : Constant
Bit rate : 755 Kbps
Channel(s) : 6 channels
Channel positions : Front: L C R, Side: L R, LFE
Sampling rate : 48.0 KHz
Bit depth : 24 bits
Compression mode : Lossy
Stream size : 674 MiB (5%)
Title : Audio Latino DTS
Language : Spanish

Text
ID : 6
Format : UTF-8
Codec ID : S_TEXT/UTF8
Codec ID/Info : UTF-8 Plain Text
Title : Subtitulos Castellano Forzados
Language : Spanish

Para Bajar los Enlaces,Tener el JDownloader abierto y despues copiar el enlace.
Si no te cargan los enlaces,Reinicia el Jdownloader e intenta cargar el contenedor nuevamente
NOTA: a menudo linksave indica que los archivos no están disponibles,aunque si lo esten,
pinchar en click’N'load o DLC para confirmar si están online.

ENLACES: 26 Enlaces de 454MB aproximadamente,1 de 355 MB y 3 de recuperacion de 454MB en Uploadstation,Fileserve,X7,Netload,Wupload,Filejun gle

LOS ENLACES EN DLC Y EN LINKS

Código:

http://linksave.in/4182562054ecbbb2f44512

FILEJUNGLE

Código:

http://www.filejungle.com/f/Wv3W2D/boga.sobermiguel.part01.rar

http://www.filejungle.com/f/eaAb7z/boga.sobermiguel.part01.rev

http://www.filejungle.com/f/JZZeka/boga.sobermiguel.part02.rar

http://www.filejungle.com/f/5X8pNh/boga.sobermiguel.part02.rev

http://www.filejungle.com/f/EdwKTH/boga.sobermiguel.part03.rar

http://www.filejungle.com/f/eeY6sn/boga.sobermiguel.part03.rev

http://www.filejungle.com/f/pRk5su/boga.sobermiguel.part04.rar

http://www.filejungle.com/f/Znr3hG/boga.sobermiguel.part05.rar

http://www.filejungle.com/f/cMuxzr/boga.sobermiguel.part06.rar

http://www.filejungle.com/f/eNE5FN/boga.sobermiguel.part07.rar

http://www.filejungle.com/f/bMuDXy/boga.sobermiguel.part08.rar

http://www.filejungle.com/f/ZGju4g/boga.sobermiguel.part09.rar

http://www.filejungle.com/f/xdak32/boga.sobermiguel.part10.rar

http://www.filejungle.com/f/SbFPcm/boga.sobermiguel.part11.rar

http://www.filejungle.com/f/fXfrr9/boga.sobermiguel.part12.rar

http://www.filejungle.com/f/jteExu/boga.sobermiguel.part13.rar

http://www.filejungle.com/f/GEWa7X/boga.sobermiguel.part14.rar

http://www.filejungle.com/f/P2Gu5T/boga.sobermiguel.part15.rar

http://www.filejungle.com/f/DuZbXP/boga.sobermiguel.part16.rar

http://www.filejungle.com/f/2kqwJu/boga.sobermiguel.part17.rar

http://www.filejungle.com/f/8X9Eqd/boga.sobermiguel.part18.rar

http://www.filejungle.com/f/uQuBPT/boga.sobermiguel.part19.rar

http://www.filejungle.com/f/jFfs6A/boga.sobermiguel.part20.rar

http://www.filejungle.com/f/gkRuEP/boga.sobermiguel.part21.rar

http://www.filejungle.com/f/sK3qQ3/boga.sobermiguel.part22.rar

http://www.filejungle.com/f/dqAscF/boga.sobermiguel.part23.rar

http://www.filejungle.com/f/dBNCse/boga.sobermiguel.part24.rar

http://www.filejungle.com/f/pWsJus/boga.sobermiguel.part25.rar

http://www.filejungle.com/f/gt5UWN/boga.sobermiguel.part26.rar

http://www.filejungle.com/f/qN8RcS/boga.sobermiguel.part27.rar

MIS ULTIMOS APORTES

Código:

http://linkto.net/?14523568124ecac948b7bec2.78932457

VN:F
Rating: 0.0/10 (0 votes cast)
VN:F
Rating: 0 (from 0 votes)

  1. Sábado, 23 de febrero de 2013 a las 08:22 | #1

    308381 549893This put up is totaly unrelated to what I used to be looking google for, nevertheless it was indexed on the first page. I guess your doing something correct if Google likes you adequate to place you at the first page of a non related search. 762070

    VA:F [1.9.20_1166]
    Rating: 0.0/5 (0 votes cast)
    VA:F [1.9.20_1166]
    Rating: 0 (from 0 votes)
  1. Sin trackbacks aún.


8 − tres =